Missing.You.2015.720P.HDRip.H264.AC3-obame

  • Category Movies
  • Type HD
  • Language Korean
  • Total size 2.5 GB
  • Uploaded By noriegaRJ
  • Downloads 261
  • Last checked 4 hours ago
  • Date uploaded 4 days ago
  • Seeders 10
  • Leechers 1

Missing You

Animation

Mother secretly threw a letter of her daughter in the snow ocean. The daughter in suspicion, followed her mother and sneak into a boat. She waits for a thaw with unreached feelings

Infohash : 7FD32E60FDC26E08D385C5B27D7F3DBE28F5E5F5

Release: Missing.You.2015.720P.HDRip.H264.AC3-obame



IMDB: http://www.imdb.com/title/tt5545862/

Plot: Missing You is a 2016 South Korean revenge thriller film written and directed by Mo Hong-jin. It was released in South Korea on March 10, 2016. A little girl named Hee-ju who lost her father to a serial killer named Ki-bum 15 years ago awaits for his release. Ki-bum is released from prison after serving his sentence. Dae-young, a detective follows Ki-bum closely as he remains suspicious of the ex-con. A serial killer who has been waiting for his freedom, a detective who has been waiting for the killer's release, and a little girl who has been waiting for something that remains a mystery. The three are intertwined in a chaotic relationship and are met with an unprecedented series of events.

Complete name                            : Missing.You.2015.720P.HDRip.H264.AC3-obame.mp4
Format                                   : MPEG-4
Format profile                           : Base Media
Codec ID                                 : isom
File size                                : 2.48 GiB
Duration                                 : 1h 48mn
Overall bit rate mode                    : Variable
Overall bit rate                         : 3 269 Kbps
Writing application                      : Lavf55.22.100

Video
ID                                       : 1
Format                                   : AVC
Format/Info                              : Advanced Video Codec
Format profile                           : [email protected]
Format settings, CABAC                   : Yes
Format settings, ReFrames                : 3 frames
Codec ID                                 : avc1
Codec ID/Info                            : Advanced Video Coding
Duration                                 : 1h 48mn
Bit rate mode                            : Variable
Bit rate                                 : 3 072 Kbps
Maximum bit rate                         : 20.5 Mbps
Width                                    : 1 280 pixels
Height                                   : 720 pixels
Display aspect ratio                     : 16:9
Frame rate mode                          : Variable
Frame rate                               : 23.976 fps
Minimum frame rate                       : 11.988 fps
Maximum frame rate                       : 23.976 fps
Color space                              : YUV
Chroma subsampling                       : 4:2:0
Bit depth                                : 8 bits
Scan type                                : Progressive
Bits/(Pixel*Frame)                       : 0.139
Stream size                              : 2.33 GiB (94%)
Writing library                          : x264 core 142
Encoding settings                        : cabac=1 / ref=3 / deblock=1:0:0 / analyse=0x3:0x113 / me=umh / subme=8 / psy=1 / psy_rd=1.00:0.00 / mixed_ref=1 / me_range=16 / chroma_me=1 / trellis=1 / 8x8dct=1 / cqm=0 / deadzone=21,11 / fast_pskip=1 / chroma_qp_offset=-2 / threads=16 / lookahead_threads=2 / sliced_threads=0 / nr=0 / decimate=1 / interlaced=0 / bluray_compat=0 / constrained_intra=0 / bframes=1 / b_pyramid=0 / b_adapt=2 / b_bias=0 / direct=3 / weightb=1 / open_gop=0 / weightp=2 / keyint=250 / keyint_min=23 / scenecut=40 / intra_refresh=0 / rc_lookahead=50 / rc=2pass / mbtree=1 / bitrate=3072 / ratetol=1.0 / qcomp=0.60 / qpmin=0 / qpmax=69 / qpstep=4 / cplxblur=20.0 / qblur=0.5 / vbv_maxrate=20480 / vbv_bufsize=20480 / nal_hrd=vbr / filler=0 / ip_ratio=1.40 / aq=1:1.00

Audio
ID                                       : 2
Format                                   : AAC
Format/Info                              : Advanced Audio Codec
Format profile                           : LC
Codec ID                                 : 40
Duration                                 : 1h 48mn
Bit rate mode                            : Constant
Bit rate                                 : 192 Kbps
Channel count                            : 2 channels
Channel positions                        : Front: L R
Sampling rate                            : 48.0 KHz
Compression mode                         : Lossy
Delay relative to video                  : 42ms
Stream size                              : 149 MiB (6%)


SCREENSHOTS:






Files:

  • Missing.You.2015.720P.HDRip.H264.AC3-obame.mp4 (2.5 GB)

There are currently no comments. Feel free to leave one :)

Code:

  • udp://tracker.opentrackr.org:1337/announce
  • udp://tracker.coppersurfer.tk:6969/announce
  • udp://tracker.leechers-paradise.org:6969/announce
  • udp://tracker.zer0day.to:1337/announce